埋め込みCUEのFLACでAlbum Artistを編集しfoobar2000で開くと、アルバム名が正しく表示されずディスク情報も失われる

フォーラム TuneBrowser 埋め込みCUEのFLACでAlbum Artistを編集しfoobar2000で開くと、アルバム名が正しく表示されずディスク情報も失われる

このトピックには5件の返信が含まれ、2人の参加者がいます。1 年、 7 ヶ月前 Tiki さんが最後の更新を行いました。

6件の投稿を表示中 - 1 - 6件目 (全6件中)
  • 投稿者
    投稿
  • #1469

    ordinary
    参加者

    Tikiさん、こんばんは

    過去トピックにも関連する現象です。

    【編集前に同じファイルを各ソフトで開いた様子】

    アルバム名、ディスクナンバーその他正しく表示されます。
    共にTotal Discs : 1 も格納されています。

    【手順と現象】

    1. Album Artistに値を入力する。
    2. foobar2000で開くと、
      • アルバム名が「ARTIST “(TuneBrowserで入力した値)”」 を返すトラックが存在する。
      • Disc Number と Total Discs 情報が失われる。

    foobar2000でAlbum Artistに値を入力した場合は、TuneBrowser で開いても期待した結果を返します。 但し格納されるフィールドはAlbum Artistではなく<ALBUMARTIST>、Total Discsではなく<DISCTOTAL>。

    以下は、foobar2000のedit cuesheetで取得した埋め込みキューシートの内容です。 TuneBrowser編集前後で差異があります。

    【編集前】※ foobar2000で編集後はキューシートに差異はありません でした。

    REM DATE 2011
    REM DISCID 30033B04
    REM COMMENT CUERipper v2.1.5 Copyright (C) 2008-13 Grigory Chudov
    CATALOG 4988009047560
    PERFORMER “YUI”
    TITLE “It’s My Life / Your Heaven”
    FILE “It’s My Life _ Your Heaven.flac” WAVE
    TRACK 01 AUDIO
    TITLE “It’s My Life”
    PERFORMER “YUI”
    ISRC JPSR01004647
    INDEX 01 00:00:00
    TRACK 02 AUDIO
    TITLE “Your Heaven”
    PERFORMER “YUI”
    ISRC JPSR01004507
    INDEX 00 03:16:08
    INDEX 01 03:17:56
    TRACK 03 AUDIO
    TITLE “Rain 〜YUI Acoustic Version〜”
    PERFORMER “YUI”
    ISRC JPSR01004648
    INDEX 00 06:31:20
    INDEX 01 06:31:68
    TRACK 04 AUDIO
    TITLE “It’s My Life 〜Instrumental〜”
    PERFORMER “YUI”
    ISRC JPSR01004649
    INDEX 00 10:29:71
    INDEX 01 10:31:44

    【TuneBrowserで編集後】

    REM DATE 2011
    REM DISCID 30033B04
    REM COMMENT CUERipper v2.1.5 Copyright (C) 2008-13 Grigory Chudov
    CATALOG 4988009047560
    PERFORMER “YUI”
    FILE “It’s My Life _ Your Heaven.flac” WAVE
    TRACK 01 AUDIO
    TITLE “It’s My Life”
    ISRC ‘JPSR01004647’
    INDEX 01 00:00:00
    TRACK 02 AUDIO
    TITLE “Your Heaven”
    ISRC ‘JPSR01004507’
    INDEX 00 03:16:08
    INDEX 01 03:17:56
    TRACK 03 AUDIO
    TITLE “Rain 〜YUI Acoustic Version〜”
    ISRC ‘JPSR01004648’
    INDEX 00 06:31:20
    INDEX 01 06:31:68
    TRACK 04 AUDIO
    TITLE “It’s My Life 〜Instrumental〜”
    ISRC ‘JPSR01004649’
    INDEX 00 10:29:71
    INDEX 01 10:31:44

    #1470

    Tiki
    キーマスター

    こんばんわ。

    タグ名(ALBUM ARTIST)のなかに半角スペースがあると、ご指摘のようにおかしくなることがわかりました。

    内部CUESHEETとfoobar2000に関する一連の事象がこれですべて解決するわけではないとは思いますが、この点は次のリリースまでに修正しようと思います。(半角スペースを除去した名前をタグ名にします)

    ありがとうございました。

    #1479

    ordinary
    参加者

    Tikiさん、こんにちは

    早速の対応をありがとうございます。

    Ver.4.3.0.1348でアルバム名、ディスクナンバー、トータルディスクが正しく反映されている事が確認できました。

    一方、タグ編集前と後で埋め込みCUEの一部に差異がある点はVersion 4.2.4と同様で、各トラックの「PERFORMER “YUI”」がなくなっていました。

    #1482

    Tiki
    キーマスター

    こんばんわ。ご確認いただき、ありがとうございました。

    今回の検証で気がついたのですが、foobar2000の埋込みCUEHSEETエディタは、どうも必ずしも埋め込まれているCUESHEETをそのまま表示しているのではなく、自分が解釈できたCUESHEETに変換しているようです。だからどうだという話はないのですが、ご報告しておきます。

     

    各トラックの「PERFORMER “YUI”」がなくなっていました。

    これは、おっしゃる通りです。全トラック共通の値ですので、トラックより上のアルバム情報のコーナーに集約しています。

    #1484

    ordinary
    参加者

    Tikiさん、こんにちは。foobar2000の埋め込みCUESHEETエディタの情報を有難うございます。

    この情報をきっかけにMusicBeeで埋め込みCUEのFLACを確認してみました。過去トピックのTuneBrowserでタグ編集後にfoobar2000でタグ情報が正しく表示されない一連の問題は、MusicBeeでは発生していなさそうです。

    MusicBeeはタグに複数値を持てることもあるため、埋め込みCUEのタグ編集について今後はMusicBeeで確認した方がよさそうに思いはじめています。CUEシートエディタも使い辛いながら付いてます。

    #1486

    Tiki
    キーマスター

    こんばんわ。

    了解しました。

6件の投稿を表示中 - 1 - 6件目 (全6件中)

トピック「埋め込みCUEのFLACでAlbum Artistを編集しfoobar2000で開くと、アルバム名が正しく表示されずディスク情報も失われる」への新規返信追加は締め切られています。